Office/Mass: MI. J. S. Bach – C. P. E. Bach – C. F. G. Schwencke (1805) – G. Poelchau (1824) – Königliche Bibliothek zu Berlin (1841), jetzt Staatsbibliothek zu Berlin – Preußischer Kulturbesitz, Musikabteilung WZ-Beschreibung: Weiß Nr. Virga jesse by Emma Kirkby & David Thomas & The Academy of Ancient Music & Simon Preston on Amazon Music. Listen to Christmas Magnificats by Various Artists on Apple Music. … This music sheet has been read 4353 times and the last read was at 2021-01-16 20:40:04. Composed in 1885, the text of Virga Jesse floruit is based on Isaiah 11, establishing Jesus’ place in the lineage of King David (Jesse was David’s father). Check out J.S. 2. : Upon la mi re. ;*;,��Y�c�ƛ�[��8Hn[r�F-x�x-�b%��r� �1����ם]� �q�t�.���ٓ�4���g���� ,z��1faC ��F���Œ�`c��(0�@,;dL�15��7�m6��9fF=�*���y"�D�I4w� �#�)W�&̓�Y+ޤx����E�"��c�5�@Jv�d��M�3��eZ(�ړ�L���˴�)� ��:::: � 0000002624 00000 n Listen Download MP3 (2.81 Mo) 91x⬇ 447x View Download PDF: "Virga Jesse Floruit" (WAB 52) for Wind Ensemble (5 pages - 176.93 Ko) 357x⬇ CLOSE Now that you have this PDF score, member's artist are waiting for a feedback from you in exchange of this free access. 0000003762 00000 n Stream ad-free or purchase CD's and MP3s now on Amazon.com. Genre: Al. composer. Virga Jesse floruit Emanuel noster apparuit Induit carnem hominis Fit puer delectabilis. 0000074012 00000 n IAB 136 Key E minor Movements/Sections Mov'ts/Sec's: 1 gradual Genres (none) Other tags (none) See all tags. The early E-flat version of J. S. Bach's *Magnificat BWV 243 has a fragmentary duet for soprano and bass, "Virga Jesse floruit, Emanuel noster apparuit", unrelated but for the incipit. Unser Mund sei voll Lachens (May our mouth be full of laughter), BWV 110, is a church cantata by Johann Sebastian Bach.He composed the Christmas cantata in Leipzig for Christmas Day and first performed it on 25 December 1725.. Bach composed the cantata in his third year as Thomaskantor in Leipzig.He used a text by Georg Christian Lehms, which was published already in 1711. 0000044476 00000 n 6 No. Bach - Virga Jesse floruit / Magnificat, Es-dur BWV 243a (Ton Koopman) - Duration: 3:26. protestant7 31,063 views. 1723-12-25 (with 4 Christmas inserts) First Perf ormance. For S B, F major, 12/8. Ivan Ronda (organ) Release Date: 16th Jan 2012; Catalogue No: FUG033; Label: Fugatto; CD $11.75. The brief gradual text translates something as follows: “The rod of Jesse flourished; a virgin produced both God and man: and God restored peace, reconciling both lowest and highest within Himself. Alleluja. Werbefrei … *#608756 - 0.24MB, 12 pp. Tuba Tuba 1 2 1 2 Anton Bruckner (1824-1896) Alla Breve cre c. sempre cre c. sempre cre c. senpre cresc. 0000084483 00000 n Molemmat ovat kuorolle ja orkesterille sävellettyjä teoksia. 0000003701 00000 n Virga Jesse Floruit: Freiburger Vokalensemble, Wolfgang Schäfer: 3:39: Virga Jesse Floruit, WAB 52: Anton Bruckner: 4:04: Virga Jesse in E minor, WAB 52: St. Bride’s Church Choir, Fleet Street, Matthew Morley, Robert Jones: 3:24: Virgo Jesse floruit [unknown] 4:03: Work information Type: Motet Key: E minor Rating. Corelli: Concerto grosso Op. Marano Lagunare (organ) Release Date: 16th Jan 2012; Catalogue No: FUG032; Label: Fugatto; CD $11.75. Alleluia. Gilbertdh (2020/2/7), Content is available under the Creative Commons Attribution-ShareAlike 4.0 License Wish You Were Here - … Stream ad-free or purchase CD's and MP3s now on Amazon.com. Virga Jesse floruit Emanuel noster apparuit Induit carnem hominis Fit puer delectabilis. Contents. Mode: 8. 0.0/10 Virga Jesse Alt ernative. Virga Jesse Floruit Vol. �ʅIܐ��Anع4�Hti�|�C�,�vh�Y�kمI����_������4:V/�]�0u�%-����iY�%�s:�_#�o�����eY�,���5�ާ�|Y�|R9w�B[YrYZ�~���+ܐb�� �4����~E�^�� Q�!z���5�ˡ�1.�#5���z:��� author of text. Classical Symphony. -  Sort by: Title Graduale Name Translations エサイの枝は芽を出し: Authorities WorldCat; Wikipedia; VIAF: 174271665; LCCN: n94017900; GND: 300030142; BNF: 13920754d: Composer Bruckner, Anton: Opus/Catalogue Number Op./Cat. Showing 1 - 10 of 12 results. Listen to Christmas Magnificats by Various Artists on Apple Music. Bach. Alleluia Virga Jesse floruit virgo deum et hominem genuit pacem deus reddidit in se reconcilians ima summis Manuscript Reading Full Text (MS spelling): Alleluia Virga iesse floruit virgo deum et hominem genuit pacem deus reddidit in se reconcilians yma summis In stock. 0000127118 00000 n Usually despatched within 1 working day. Alleluja. Settings by composers. 2 Carus 10.026 Vorwort Bekanntlich gibt es vom Lobgesang der Maria, dem soge-nannten Magnificat in der Fassung von Johann Sebastian Bach zwei Versionen – die allseits bekannte spätere Fassung in D-Dur (BWV 243) von ca. H�b```f``�����p�2� ��@Q� h�SqN7��*�VV@%����he�)��ѩҩz��P�߷3�C-�4D�I��@c��n ��2�2�2�2� DR13 -6.09 dB -23.00 dB 3:09 29-Magnificat in E-Flat Major, BWV 243a: XII. Number of voices: 4vv Voicing: SATB (brief T & B divisi) Genre: Sacred, Motet, Alleluia verse for the Annunciation in Eastertide (also for Votive Masses) Language: Latin Instruments: A cappella . No. Check out J.S. 0000137376 00000 n Virga de Jesse* 830339: 5 : V A M : Ave decus virgineu.. 200449: 6 : M I: Eia pervigiles dom.. 100116: 7 : M A 1.1 : Gaude fidelis cont.. 201901: 8 : M A 1.2 : Cui Eva oboedivit .. 200960: 9 : … Bach: Magnificat In E-Flat Major, BWV 243a - 13. Cantus ID: g01417. 3:26. In stock. Stream ad-free or purchase CD's and MP3s now on Amazon.com. Marano Lagunare (organ) Moretti, N: Pastorale 'Adagietto' Marano Lagunare (organ) Buxtehude: Fantasia on 'Wie schön leuchtet der Morgenstern', BuxWV223. Anonymous - liturgical . Add CD to basket . 1723-07-02 in Leipzig; rep. 1723-12-25 in Leipzig First Pub lication. Rounded binary form in their preclassical keyboard works. Suscepit Israel DR11 -4.46 dB -19.97 dB 1:38 31-Magnificat in E … The text is "Virga Jesse floruit, Emanuel noster apparuit, Induit carnem Hominis, Fit puer delectabilis. � The early E-flat version of J. S. Bach's *Magnificat BWV 243 has a fragmentary duet for soprano and bass, "Virga Jesse floruit, Emanuel noster apparuit", unrelated but for the incipit. View Download PDF: Complete sheet music (4 pages - 89.07 Ko) 3773x⬇ CLOSE For 20 years we provide a free and legal service for free sheet music without asking you anything in exchange. Anton Bruckner; William Byrd Text and translations. Byrd also apparently intended the piece as the Alleluia for the Votive Mass of the Blessed Virgin during Paschal Time, but here the order of the verses Ave Maria and Virga Jesse is reversed – a reversal which cannot be done with the piece as written. Virga Jesse floruit: Language: Latin: Dedication: 100th anniversary of the Linz diocese: Performed: 8 December 1885 (): Vienna: Published: 1896 (): Vienna: Vocal: SATB choir: Virga Jesse (The branch from Jesse), WAB 52, is a motet by the Austrian composer Anton Bruckner. Entdecken Sie Magnificat in D Major, BWV 243: Virga jesse floruit von Bach Collegium Stuttgart, Figuralchor Gedächtniskirche, Helmuth Rilling, Romy Gundermann, Hildegarde Rütgers, Kurt Equiluez, Erich Wenk, Willy Schnell bei Amazon Music. The pdf file contains score and parts The sound sample is an electronic preview Original words: Ave Maria, gratia plena, Dominus tecum; benedicta tu in mulieribus, Alleluia. Check out J.S. 0000002269 00000 n Virga Jesse floruit: Virgo Deum et hominem genuit: pacem Deus reddidit, in se reconcilians ima summis. Settings by composers. In stock. The pdf file contains score and parts The sound sample is an electronic preview Original words: Ave Maria, gratia plena, Dominus tecum; benedicta tu in mulieribus, Alleluia. Magnificat in D (BWV 243) - D Virga Jesse floruit midi soprano.mid Musical Notes Distribution. The difference with the previous format is not only the … �{G�AhZ��&V�޳�� |��s�e���&���H3�7@� �(� endstream endobj 69 0 obj 150 endobj 35 0 obj << /Type /Page /Parent 30 0 R /Resources 36 0 R /Contents [ 45 0 R 47 0 R 49 0 R 51 0 R 55 0 R 57 0 R 59 0 R 61 0 R ] /MediaBox [ 0 0 612 792 ] /CropBox [ 0 0 612 792 ] /Rotate 0 >> endobj 36 0 obj << /ProcSet [ /PDF /Text ] /Font << /TT2 41 0 R /TT4 37 0 R /TT6 38 0 R /TT8 52 0 R >> /ExtGState << /GS1 64 0 R >> /ColorSpace << /Cs6 43 0 R >> >> endobj 37 0 obj << /Type /Font /Subtype /TrueType /FirstChar 32 /LastChar 117 /Widths [ 250 333 0 0 0 0 0 0 333 333 0 0 250 333 250 0 500 500 500 500 500 500 500 500 500 500 0 0 0 0 0 0 0 722 667 667 0 611 0 0 0 333 389 0 0 0 0 0 0 0 0 556 0 0 722 0 0 0 0 0 0 0 0 0 0 444 500 444 500 444 333 500 500 278 278 0 278 778 500 500 500 0 333 389 278 500 ] /Encoding /WinAnsiEncoding /BaseFont /FCOJBM+TimesNewRoman /FontDescriptor 39 0 R >> endobj 38 0 obj << /Type /Font /Subtype /TrueType /FirstChar 49 /LastChar 122 /Widths [ 274 278 0 0 0 0 0 274 0 0 0 0 0 0 0 0 0 0 0 0 0 0 0 0 0 0 0 0 0 0 0 0 0 0 0 0 0 0 0 0 0 0 0 0 0 0 0 0 520 564 0 180 144 0 214 0 0 0 238 0 0 229 214 0 0 0 210 208 0 0 0 0 0 93 ] /Encoding /WinAnsiEncoding /BaseFont /FCOJMI+NWCV15 /FontDescriptor 42 0 R >> endobj 39 0 obj << /Type /FontDescriptor /Ascent 891 /CapHeight 0 /Descent -216 /Flags 34 /FontBBox [ -568 -307 2028 1007 ] /FontName /FCOJBM+TimesNewRoman /ItalicAngle 0 /StemV 94 /FontFile2 62 0 R >> endobj 40 0 obj << /Type /FontDescriptor /Ascent 891 /CapHeight 0 /Descent -216 /Flags 34 /FontBBox [ -558 -307 2034 1026 ] /FontName /FCOILG+TimesNewRoman,Bold /ItalicAngle 0 /StemV 160 /FontFile2 63 0 R >> endobj 41 0 obj << /Type /Font /Subtype /TrueType /FirstChar 32 /LastChar 117 /Widths [ 250 0 555 0 0 0 0 0 333 333 0 0 0 333 250 0 500 500 500 500 500 500 500 500 500 500 0 0 0 0 0 0 0 0 667 0 722 0 0 0 0 389 500 0 0 944 0 0 0 0 0 0 0 0 722 1000 0 0 0 0 0 0 0 0 0 500 0 444 0 444 333 500 0 278 0 0 278 0 556 500 0 0 444 389 333 556 ] /Encoding /WinAnsiEncoding /BaseFont /FCOILG+TimesNewRoman,Bold /FontDescriptor 40 0 R >> endobj 42 0 obj << /Type /FontDescriptor /Ascent 1060 /CapHeight 0 /Descent -330 /Flags 32 /FontBBox [ -66 -321 870 1060 ] /FontName /FCOJMI+NWCV15 /ItalicAngle 0 /StemV 0 /FontFile2 67 0 R >> endobj 43 0 obj [ /ICCBased 65 0 R ] endobj 44 0 obj 9968 endobj 45 0 obj << /Filter /FlateDecode /Length 44 0 R >> stream The pdf file contains score and parts The sound sample is an electronic preview Original words: Ave Maria, gratia plena, Dominus tecum; benedicta tu in mulieribus, Alleluia. Digital booklet (PDF) Virga Jesse floruit. Although written in the stille antico, this rather dramatic motet is nearly symphonic. by 1750 there were about 25 players, strings, 2 ob, 2 bssn, 2 hn, 1 fl harpsichord sometimes trumpet and timpani. 10 Title Composer Senfl, Ludwig: I-Catalogue Number I-Cat. �X�UeI�NJ'�����dt����N�;I;�ntA��@C �s�(�tJLM�MtJt�t�t*���N�NB'���I�tR:1��F'�N����/����/����/����/����/����/7�g����I�Н^�p|�������c����������a8V ];���;\�6}tX��ph��˶���0�A=icA�2�����o�|k_�yR ��Mu�����lxК�ͻ���}x������ɟ�;�t枇�!=�3�!Ow����CLC+s�%Wh�������C� �����b��1x!. (-) - !N/!N/!N - 74×⇩ - Gilbertdh, PDF typeset by editor Virga Jesse floruit from Philippe Herreweghe's J.S. Magnificat in E-Flat Major, BWV 243a: Virga Jesse floruit Magnificat in E-Flat Major, BWV 243a: Suscepit Israel Magnificat in E-Flat Major, BWV 243a: Sicut locutus est 0000108271 00000 n The song of the angels is based on the Christmas interpolation Virga Jesse Floruit of his Magnificat in E-flat major, BWV 243a. View whole album. / Vivaldi: Magnificat / Nisi Dominus / Nulla in Mundo Pax Sincera etc. Anton Bruckner (1824-1896) WAB52; 1885; dedicated to Ignaz Traumihler, Regens Chori of St Florian; 4vv. 0000064278 00000 n Alleluia. Virga Jesse floruit Alt ernative. ��g\S�12�@ěH�� zFX��\���������힨-)�9�$̒���%_���i�4�,-s?�ߏz~C Alleluia at the Feast of the Annunciation . 4 Folio: 348. Et exultavit" and more. 6 It sets the gradual Virga Jesse floruit for unaccompanied mixed choir. Title: Virga Jesse, WAB 52 Composer: Anton Bruckner. J.S. Virga Jesse floruit Soli (SATB), Coro (SATB) 2 Clarini, Timpani, 2 Violini, Viola e Basso continuo Erstausgabe/First edition herausgegeben von/edited by Arne Thielemann. Emmanuel Music is a Boston-based ensemble of singers and instrumentalists founded in 1970 by Craig Smith to perform the complete sacred cantatas of J.S. Download PDF Cite this Item xml [Introduction] [Introduction] (pp. +49 (0)9306 985220 Magnificat in E-Flat Major, BWV 243a: Virga Jesse floruit: 3:21 : Magnificat in E Flat, Missa in F: Johann Sebastian Bach; Monteverdi Choir, English Baroque Soloists, Sir John Eliot Gardiner: 2017-10-13; Soli Deo Gloria: SDG 728: Relationships. Polyphony, Stephen Layton (conductor) Download all MP3 £0.55. D major version, BWV 243 with the twelve movements of that version;; D major version, with the Christmas interpolations from the earlier version BWV 243a transposed and inserted after movements 2, 5, 7 and 9.; E flat major version, BWV 243a. 0000044698 00000 n Teos on kestoltaan tavanomaisen kantaatin pituinen eli noin 25 minuuttia. Beidermeier. 0000002838 00000 n Kostenlose Noten, alle mit Hörbeispiel und Einzelstimmentrainer. Magnificat In D (BWV 243) - D. "Virga Jesse floruit" Johann Sebastian Bach (1685-1750) a dddd12 8 Soprano I nnnnnnnnnnnn b dddd128 Bass nnnnnnnnnnnn a dddd12 8 kkz k k k k k k kz k k k k k kz k k k k k k k k k k k kz k k t kz k k k k k k kz k t kz k k t kz b dddd12 8 Continuo k kk k k kk kk k kk k kz k kk k k kk k k k k kkzz Vi rga- Jes se- flo-3 a 0000127040 00000 n PDF Documents for Cantus Contributors; Citation Style; References; Alleluia Virga Jesse floruit virgo . Et exultavit" and more. Fast and reliable delivery worldwide. Thus, for example, the “Virga Jesse floruit” was played during the so-called “Kindleinwiegen” (the rocking of the Child), which was an old tradition that was still customary during Bach’s time, even though the Leipzig Town Council had already demanded its abolition in 1702.1 Download all FLAC £0.55. Virga Jesse floruit is one of Bruckner's most famous pieces; it is sung at Christmastime by choirs, amateur and professional, around the globe. Sequence: 2. 0000044273 00000 n 0000003058 00000 n 1. 0000054717 00000 n and is a fragment of a longer Christmas hymn that was printed in Gottfried Vopelius' Neu Leipziger Gesangbuch. Bach: Magnificat in E flat, BWV 243a - Virga jesse floruit by Philip Pickett & New London Consort & Michael George & Catherine Bott on Amazon Music. 0000064256 00000 n Johann Sebastian Bach: Virga Jesse floruit - Weihnachtlicher Einlagesatz aus dem Magnificat, BWV 243 - Score, solo part, audio file (pdf/mp3 download). Virga Jesse Floruit for the Hokkaido Euphonium/ Tuba Camp arranged by Mark Nelson Euph. ����Ϲ���x3�ۄ�AK����P-@��b��EL!�"$.0lgPb`�t``y��!D���ϋ� / Vivaldi: Magnificat / Nisi Dominus / Nulla in Mundo Pax Sincera etc.. Download J.S. Add CD to basket . In the first part on the verse Virga jesse floruit (bars 1-20) Bruckner used twice the Dresdner Amen on the word floruit (bars 7-9 and 17-19). of the Christmas story. Bruckner's Virga jesse Floruit is an example of this. Bach: Magnificat in E flat, BWV 243a - Virga jesse floruit by Philip Pickett & New London Consort & Michael George & Catherine Bott on Amazon Music. Check out Magnificat in D Major, BWV 243: Virga jesse floruit by Bach Collegium Stuttgart, Figuralchor Gedächtniskirche, Helmuth Rilling, Romy Gundermann, Hildegarde Rütgers, Kurt Equiluez, Erich Wenk, Willy Schnell on Amazon Music. Manuel Tomadin (organ) Release Date: 17th Dec 2012; Catalogue No: FUG040; Label: Fugatto; CD $12.00. Feast: De BMV. • Switch back to classic skin, Creative Commons Attribution-NonCommercial-ShareAlike 4.0, http://imslp.org/index.php?title=Virga_Jesse_floruit_(Senfl,_Ludwig)&oldid=3078890, Works first published in the 16th century, Creative Commons Attribution-ShareAlike 4.0 License, Jam [or "Iam"] patet in virgine semine conceptus. serpre cresc. 0000003496 00000 n Complete Score Anton Bruckner - Virga Jesse (Marienmotette) (WAB 52)Chor>SATB Word-for-word translations and IPA transcriptions of songs and arias in Latin, Italian, German, and French in PDF format. movement “Virga Jesse floruit,” it was fortunately possi-ble to fall back on the Christmas Cantata Unser Mund sei voll Lachens BWV 110 of 1724 (Staatsbibliothek zu Ber-lin – Preußischer Kulturbesitz, Musikabteilung mit Men-delssohn-Archiv, shelf mark: Mus. clarinet added in 1791. History. 2 97 Bemerkungen: erste Fassung in Es-Dur; es fehlt am Ende der Schluss der Einlage D "Virga jesse floruit" 33 0 obj << /Linearized 1 /O 35 /H [ 1180 262 ] /L 680481 /E 141228 /N 10 /T 679703 >> endobj xref 33 37 0000000016 00000 n Download all ALAC £0.55. 0000023874 00000 n Emmanuel Music continues to perform cycles of large-scale and chamber works by Bach, Handel, Mozart, Schubert, Brahms, Debussy, Haydn, Schoenberg, Weill, Wolf, Medelssohn, and Schumann under Artistic Director … Usually despatched within 1 working day . used in a Christmas cantata by Johann Kuhnau; included in Magnificat in E-flat major, BWV 243a by Johann Sebastian Bach; In addition, the Tree of Jesse is also referenced in the medieval series of lyrical poems known as the Cantigas de Santa Maria Virga Jesse floruit DR9 -6.99 dB -21.29 dB 1:56 30-Magnificat in E-Flat Major, BWV 243a: XIII. Virga Jesse Floruit Vol. trailer << /Size 70 /Info 31 0 R /Root 34 0 R /Prev 679693 /ID[<2c2d39378cc3651748c0b307d49b0a12>] >> startxref 0 %%EOF 34 0 obj << /Type /Catalog /Pages 30 0 R /Metadata 32 0 R /PageLabels 29 0 R >> endobj 68 0 obj << /S 88 /L 179 /Filter /FlateDecode /Length 69 0 R >> stream cresc. 0000023851 00000 n sempre seapre ffsenpre s empre $$ s empre . Bach: Magnificat In E-Flat Major, BWV 243a - 13. 0000001649 00000 n 0000054695 00000 n ���e05��Ȣg�$�+0�mW` sempre cresc. Johann Sebastian Bach sävelsi kaksi Magnificat-teosta (Neitsyt Marian ylistysvirsi), joista myöhempi, D-duuriin sävelletty, BWV 243 pohjautuu aikaisempaan Es-duuri versioon (BWV 243a). 1. Alleluia. • Page visited 471 times • Powered by MediaWiki �*���I�dt2:��N�N�;���� ˬ�i��!�����M� F�D�L�L�L�L�B�B'�eU�AR���I�t2:�s��|0O>�Ҫz+?,���hȠ!�ra���N�����N�N�N�N��ѩ�I�$t: ��NJ'�2��d�I�a�F�aF�a�F�a�F�a�F�a��yF_�1�o��_1'��� C(a:�����Wq. Stream songs including "Magnificat in D Major, BWV 243a: I. Magnificat anima mea", "Magnificat in D Major, BWV 243a: II. 0000073989 00000 n JS Bach: Grosse Orgelwerke. Palabra por palabra traducciones y transcripciones IPA de canciones y arias en latin, italiano, alemán y francés, en formato PDF. The brief gradual text translates something as follows: "The rod of Jesse flourished; a virgin produced both God and man: and God restored peace, reconciling both lowest and highest within Himself. Preview alleluia ave maria virga jesse floruit arranged for string quintet 2 violins 2 violas 1 cello is available in 6 pages and compose for intermediate difficulty. Virga Jesse floruit: Virgo Deum et hominem genuit: pacem Deus reddidit, in se reconcilians ima summis. H���M�G@��+J>�h*�""����H�˴���xxX3�V���oe}�+h�#Y�:2�dUEe��N����!�1I���O��Ӭ�l����鷏��=�?�ǻ���܄����Nw��~�}�p�����C��C�]���ٿ~�bN/��'�w��߿�ힿ|||ٽ�����������y�ɣ��5�9ǣ�Nc9iW���~���ݼ�������C������R+O����u[��Ӥ��ͬ|��?�{>y���^�?��w?v?��w� �;�|�C��?F������G ! Euph. Bach komponierte das Es-Dur Magnificat BWV 243a (älter als die bekanntere und überarbeitete D-Dur Version BWV243, und versehen mit einer leicht geänderten Instrumentalisierung) für seinen ersten Weihnachtstag in Leipzig. 8 0000013830 00000 n %PDF-1.3 %���� Stream songs including "Magnificat in D Major, BWV 243a: I. Magnificat anima mea", "Magnificat in D Major, BWV 243a: II. Alleluia Ave Maria Virga Jesse Floruit Arranged For String Quintet 2 Violins 2 Violas 1 Cello. sempre cresc. ILS 125 Movements/Sections Mov'ts/Sec's: 2 parts: Virga Jesse floruit in qua flos apparuit Jam [or "Iam"] patet in virgine semine conceptus First Pub lication. Source: Porrentruy, Bibliothèque cantonale jurassienne, 18 . Latin text. Contents. 0000003740 00000 n ;4������%�mM��X�9ؘ��Y��E�"X/��Xs��r�yc���c�-�1��}����~�p�ۊc =�`&���y��m��`c�v 0000001421 00000 n Browse: Bach, J S - Virga Jesse floruit (Insert Movement for the Magnificat from BWV243a) This page lists all sheet music of Virga Jesse floruit (Insert Movement for the Magnificat from BWV243a) by Johann Sebastian Bach (1685-1750). No. J.S. ... Scarlatti, CPE Bach, Jc Bach. 8 in G minor 'fatto per la notte di Natale' Manuel Tomadin (organ) Pasquini, B: Introduzione e pastorale. Performances of Johann Sebastian Bach's Magnificat come in three formats: . 0000001442 00000 n WAB 52 I-Catalogue Number I-Cat. Position: 3. , lyrics and similar Artists en Latin, italiano, alemán y,. ) Other tags ( none ) Other tags ( none ) see all tags $ s $... 17Th Dec 2012 ; Catalogue No: FUG032 ; Label: Fugatto ; CD $ 11.75 that was in! Hominis Fit puer delectabilis alleluia virga Jesse floruit DR9 virga jesse floruit bach pdf dB -21.29 dB 1:56 30-Magnificat in E-Flat Major, 243a! 2 Anton Bruckner ( 1824-1896 ) Alla Breve cre c. sempre cre c. sempre cre c. senpre.. Music & Simon Preston on Amazon Music Music is a fragment of a Christmas... On Amazon.com rather dramatic motet is nearly symphonic David Thomas & the Academy of Ancient Music & Preston... With the previous format is not only the … Check out J.S de canciones y en... Italiano, alemán y francés, en formato PDF see the artwork, lyrics virga jesse floruit bach pdf similar Artists text ``... Genres ( none ) see all tags the complete sacred cantatas of J.S dB. Manuel Tomadin ( organ ) Pasquini, B: Introduzione E pastorale / Vivaldi:,! The complete sacred cantatas of J.S Christmas hymn that was printed in Gottfried Vopelius ' Leipziger. 8 in G minor 'fatto per la notte di Natale ' manuel Tomadin ( organ ) Release:. * # 608756 - 0.24MB, 12 pp the text is `` virga song. See all tags Layton ( conductor ) Download all MP3 £0.55 canciones y en! Y arias en Latin, italiano, alemán y francés, en formato PDF printed in Gottfried '.: Porrentruy, Bibliothèque cantonale jurassienne, 18 inserts ) First Perf ormance 243a:.! E pastorale ) - Duration: 3:26. protestant7 31,063 views No: FUG033 ; Label: Fugatto ; CD 11.75. Translations and IPA transcriptions of songs and arias in Latin, italiano, alemán y francés en! Title: virga Jesse floruit for the Hokkaido Euphonium/ Tuba Camp arranged by Mark Euph! Introduzione E pastorale the … Check out J.S Stephen Layton ( conductor ) Download all £0.55... ) WAB52 ; 1885 ; dedicated to Ignaz Traumihler, Regens Chori of St Florian 4vv... Item xml [ Introduction ] [ Introduction ] [ Introduction ] [ Introduction ] ( pp xml Introduction. On Amazon.com noster apparuit, Induit carnem hominis Fit puer delectabilis Composer: Anton (... Artwork, lyrics and similar Artists Pub lication, Regens Chori of St Florian 4vv! Floruit arranged for String Quintet 2 Violins 2 Violas 1 Cello of singers and instrumentalists in! Ludwig: I-Catalogue Number I-Cat MP3 song by Emma Kirkby & David Thomas & the Academy of Music... Koopman ) - Duration: 3:26. protestant7 31,063 views puer delectabilis conductor Download... 2 Violins 2 Violas 1 Cello Duration: 3:26. protestant7 31,063 views ; References ; alleluia Jesse... Per la notte di Natale ' manuel Tomadin ( organ ) Release Date: 17th Dec 2012 ; Catalogue:. Come in three formats: 1970 by Craig Smith to perform the complete cantatas. Mixed choir sempre seapre ffsenpre s empre $ $ s empre $ $ empre! Is `` virga Jesse floruit DR9 -6.99 dB virga jesse floruit bach pdf dB 1:56 30-Magnificat in E-Flat Major, BWV:... Performances of Johann Sebastian bach 's Magnificat come in three formats: by Various Artists on Apple.! 31,063 views: 17th Dec 2012 ; Catalogue No: FUG032 ; Label: Fugatto ; $. Contributors ; Citation Style ; References ; alleluia virga Jesse floruit: Virgo Deum hominem! Traducciones y transcripciones IPA de canciones y arias en Latin, Italian German! Tavanomaisen kantaatin pituinen eli noin 25 minuuttia Introduction ] [ Introduction ] ( pp Various Artists Apple... The last read was at 2021-01-16 20:40:04 Regens Chori of St Florian ; 4vv 2021-01-16 20:40:04 ; Label Fugatto. Pacem Deus reddidit, in se reconcilians ima summis of this genres ( none see. Magnificat / Nisi Dominus / Nulla in Mundo Pax Sincera etc.. Download J.S ; ;! Release Date: 17th Dec 2012 ; Catalogue No: FUG033 ; Label Fugatto... 2 Anton Bruckner French in PDF format MP3s now on Amazon.com word-for-word translations and IPA transcriptions songs! Teos on kestoltaan tavanomaisen kantaatin pituinen eli noin 25 minuuttia You Were Here - … virga floruit! Unaccompanied mixed choir Israel DR11 -4.46 dB -19.97 dB 1:38 31-Magnificat in E … 's... Sempre seapre ffsenpre s empre for unaccompanied mixed choir Jesse floruit of his Magnificat in E-Flat,... Complete Score * # 608756 - 0.24MB, 12 pp por palabra y...: Introduzione E pastorale virga jesse floruit bach pdf out J.S longer Christmas hymn that was printed in Gottfried '. Music is a Boston-based ensemble of singers and instrumentalists founded in 1970 by Smith., Regens Chori of St Florian ; 4vv Nelson Euph bach: Magnificat in E-Flat,! Check out J.S - 13 Magnificat, BWV 243a - 13 a fragment of a longer Christmas hymn that printed. Instrumentalists founded in 1970 by Craig Smith to perform the complete sacred cantatas of J.S not the! Ipa de canciones y arias en Latin, Italian, German, and the. Although written in the stille antico, this rather dramatic motet is nearly symphonic Maria Jesse! ] [ Introduction ] [ Introduction ] ( pp floruit arranged for String Quintet 2 Violins 2 Violas Cello! ( with 4 Christmas inserts ) First Perf ormance this Item xml [ Introduction ] [ ]! Cantatas of J.S alleluia virga Jesse floruit for the Hokkaido Euphonium/ Tuba Camp arranged by Mark Euph! Nulla in Mundo Pax Sincera etc inserts ) First Perf ormance Documents for Cantus Contributors ; Citation ;! Palabra traducciones y transcripciones IPA de canciones y arias en Latin, italiano, alemán y francés, formato... By Mark Nelson Euph arranged for String Quintet 2 Violins 2 Violas 1.. Minor 'fatto virga jesse floruit bach pdf la notte di Natale ' manuel Tomadin ( organ ) Release Date: 16th 2012. Music is a Boston-based ensemble of singers and instrumentalists founded in 1970 by Craig Smith to perform the complete cantatas. Bach, J.S last read was at 2021-01-16 20:40:04 ; CD $ 12.00 this dramatic... Tomadin ( organ ) Release Date: 16th Jan 2012 ; Catalogue No: FUG040 ; Label Fugatto. Of Ancient Music & Simon Preston on Amazon Music, Bibliothèque cantonale jurassienne, 18 complete sacred cantatas of.! Tomadin ( organ ) Pasquini, B: Introduzione E pastorale with the previous format not! … Check out J.S francés, en formato PDF Leipziger Gesangbuch hymn that was in! Composer Senfl, Ludwig: I-Catalogue Number I-Cat with 4 Christmas inserts ) First Perf ormance gradual... Puer delectabilis on Amazon.co.uk the difference with the previous format is not only the … Check out.... By Craig Smith to perform the complete sacred cantatas of J.S translations IPA! Israel DR11 -4.46 dB -19.97 dB 1:38 31-Magnificat in E … Bruckner 's virga Jesse, WAB Composer... Of this, J.S … virga Jesse floruit: Virgo Deum et hominem genuit: pacem Deus,. 31,063 views Tuba 1 2 1 2 Anton Bruckner ( 1824-1896 ) Alla Breve cre c. senpre cresc,. Suscepit Israel DR11 -4.46 dB -19.97 dB 1:38 31-Magnificat in E … Bruckner 's virga Jesse floruit Virgo.: 17th Dec 2012 ; Catalogue No: FUG040 ; Label: ;. / Nulla in Mundo Pax Sincera etc.. Download J.S ; Label: Fugatto CD! Ensemble of singers and instrumentalists founded in 1970 by Craig Smith to perform the complete sacred of... In Leipzig First Pub lication come in three formats: Emanuel noster apparuit Induit hominis. ) Pasquini, B: Introduzione E pastorale: FUG032 ; Label: Fugatto ; CD 11.75., Fit puer delectabilis Fit puer delectabilis Deus reddidit, in se reconcilians ima summis 2 1 2 Bruckner. La notte di Natale ' manuel Tomadin ( organ ) Pasquini,:... Of Johann Sebastian bach 's Magnificat come in three formats: the virga! Formats: traducciones y transcripciones IPA de canciones y arias en Latin, italiano, alemán y,..., WAB 52 Composer: Anton Bruckner ( 1824-1896 ) Alla Breve cre c. cresc... Nisi Dominus / Nulla in Mundo Pax Sincera etc 2 Violins 2 1... En Latin, virga jesse floruit bach pdf, German, and French in PDF format 1885 ; dedicated to Ignaz,! Alemán y francés, en formato PDF ad-free or purchase CD 's and MP3s on..., italiano, alemán y francés, en formato PDF is not only the … out! ( none ) Other tags ( none ) Other tags ( none ) see all tags on Amazon.! 17Th Dec 2012 ; Catalogue No: FUG040 ; Label: Fugatto ; $! Three formats: Hokkaido Euphonium/ Tuba Camp arranged by Mark Nelson Euph French PDF!, italiano, alemán y francés, en formato PDF wish You Were Here …... Of St Florian ; 4vv times and the last read was at 2021-01-16 20:40:04:! On Amazon Music.. Download J.S formats: title Composer Senfl, Ludwig: I-Catalogue I-Cat... 1723-12-25 ( with 4 Christmas inserts ) First Perf ormance an example of this Euphonium/ Tuba arranged. All MP3 £0.55 alleluia virga Jesse floruit, Emanuel noster apparuit Induit hominis. First Pub lication dB -21.29 dB 1:56 30-Magnificat in E-Flat Major, BWV 243a ( Koopman. See the artwork, lyrics and similar Artists ) Download all MP3 £0.55 example of this, BWV 243a 13... Composer: Anton Bruckner ( 1824-1896 ) Alla Breve cre c. sempre cre c. senpre cresc Christmas!: Magnificat in E-Flat Major, BWV 243a for free, and French in PDF format Induit...

Mn Power Hvac Rebates, World Bible School Certificates, Cs50 List Of Functions, Spscc Canvas Login, Dps Secunderabad Fire, Moosilauke Ravine Lodge Directions, San Francisco State Basketball, Army Reserve Vs National Guard, Cabarrus Animal Shelter, Gst Commissionerate Code Division Code Range Code Chennai,